Wednesday, October 19, 2011

Septien 2011 DVDRip XviD-IGUANA

[WU+FS+FSC] Septien 2011 DVDRip XviD-IGUANA

>IMDB Ratings 6.3/10 from 59 users | Metascore: 50/100 <


This image has been resized. Click this bar to view the full image. The original image is sized 1365x2048.



Code:
http://www.imdb.com/title/tt1763280/

Quote:
Drawing inspiration from the likes of outsider art, Southern Gothic fiction, and Victor Erice’s 1973 film The Spirit of the Beehive, Michael Tully’s singular Septien is that rare art-house film that delivers equal measures of laughter, darkness, and beauty. Suddenly and without explanation, Cornelius Rawlings, The Athlete (Tully, in one of the year’s most memorable performances) returns to his family’s Tennessee farm eighteen years after he disappeared. His parents have died, but his two brothers — Ezra, The Matriarch (Robert Longstreet ) and Amos, The Artist (Onur Tukel) — have continued their isolated, idiosyncratic lives on the family farm. The brothers receive the phenomenally bearded Cornelius’ return with equal parts bewilderment and joy, but he remains a mysterious presence in their midst, slipping away occasionally to hustle cash as an unlikely ringer on the basketball and tennis courts.










Quote:
General
Complete name: iguana-sep.xvid.avi
Format : AVI
Format/Info: Audio Video Interleave
File size: 697 MiB
Duration : 1h 19mn
Overall bit rate mode: Variable
Overall bit rate : 1 229 Kbps
Writing application: VirtualDubMod 1.5.10.2 (build 2540/release)
Writing library: VirtualDubMod build 2540/release

Video
ID : 0
Format : MPEG-4 Visual
Format profile : Advanced Simple@L5
Format settings, BVOP: 2
Format settings, QPel: No
Format settings, GMC : No warppoints
Format settings, Matrix: Default (H.263)
Muxing mode: Packed bitstream
Codec ID : XVID
Codec ID/Hint: XviD
Duration : 1h 19mn
Bit rate : 1 088 Kbps
Width: 624 pixels
Height : 352 pixels
Display aspect ratio : 16:9
Frame rate : 23.976 fps
Color space: YUV
Chroma subsampling : 4:2:0
Bit depth: 8 bits
Scan type: Progressive
Compression mode : Lossy
Bits/(Pixel*Frame) : 0.207
Stream size: 617 MiB (89%)
Writing library: XviD 64

Audio
ID : 1
Format : MPEG Audio
Format version : Version 1
Format profile : Layer 3
Mode : Joint stereo
Mode extension : MS Stereo
Codec ID : 55
Codec ID/Hint: MP3
Duration : 1h 19mn
Bit rate mode: Variable
Bit rate : 128 Kbps
Channel(s) : 2 channels
Sampling rate: 48.0 KHz
Compression mode : Lossy
Stream size: 72.8 MiB (10%)
Alignment: Aligned on interleaves
Interleave, duration : 24 ms (0.58 video frame)
Interleave, preload duration : 143 ms
Writing library: LAME3.90.
Encoding settings: -m j -V 4 -q 2 -lowpass 17.6 --abr 128


Code:
http://www.wupload.com/file/521389531/Septien.2011.DVDRip.XviD-IGUANA.rar

Code:
http://www.fileserve.com/file/fVcNQ3y

Code:
http://www.filesonic.com/file/2663856241/Septien.2011.DVDRip.XviD-IGUANA.rar

No comments :

Post a Comment